Алехандро Ходоровски - Почётная Задница Дуросовского Университета / Alexandro Jodorowsky, Grand rectum - Université de Foulosophie (Франсуа Гурдоровски / Francois Gourdorowsky) [2011, Канада, Документальный, WEBRip-AVC] AVO (Юрий Сербин) + Origi

Ответить на тему
Статистика раздачи [Обновить пиров]
Размер:  598 MB   |    Зарегистрирован:  4 дня   |    Скачан:  0 раз

Полного источника не было: Никогда

 
   
 
 
 
Автор Сообщение

fxraven.com

Создавать темы 13-Фев-2018 21:21

[Цитировать]

Алехандро Ходоровски - Почётная Задница Дуросовского Университета / Alexandro Jodorowsky, Grand rectum - Université de Foulosophie
Страна: Канада
Жанр: Документальный
Год выхода: 2011
Продолжительность: 1:30:31
Перевод: Авторский (одноголосый закадровый) Юрий Сербин
Субтитры: нет
Оригинальная аудиодорожка: французский
Режиссер: Франсуа Гурдоровски / Francois Gourdorowsky
В ролях: Алехандро Ходоровски, Паскаль Монтандон, Робин Аберт, Стефан Крете, Рош Демерс, Франсуа Гурд, Гай А. Лепаж, Дидье Люсьен, Марсель Сабурин, Арманд Валланкурт
Описание: Документальный фильм, посвящённый поездке Алехандро в Монреаль, где в марте 2011 он получил титул, называемый "title of Grand Rectum from the University Of Foulosphie" ("Почётная Задница Дуросовского Университета"). Франсуа Гур и Матье Бушар (François Gourd and Matthieu Bouchard) повествуют о событиях той недели, копаются в истории маэстро, строят различные догадки и анализируют творчество и деятельность. Также в фильме есть большое количество интервью, редкие фото и видеоматериалы
Сэмпл: http://multi-up.com/1186288
Качество видео: WEBRip-AVC
Формат файла: MKV
Видео: AVC, 854x480, 16:9, 29.970 кадр/сек, 670 Кбит/сек
Аудио: AAC, 44100Гц, 125 Кбит/сек, 2 канала, Ю.Сербин
Аудио 2: AAC, 44100Гц, 126 Кбит/сек, 2 канала, оригинал на французском

MediaInfo

GeneralUnique ID : 186733326513823626477019822335201047352 (0x8C7B87CFD16926B48945C67557DAF338)Complete name : C:\Алехандро Ходоровски - Почётная Задница Дуросовского Университета (2011) .mkvFormat : MatroskaFormat version : Version 4 / Version 2File size : 598 MiBDuration : 1h 30mnOverall bit rate : 923 KbpsEncoded date : UTC 2018-02-07 13:37:48Writing application : mkvmerge v16.0.0 ('Protest') 64-bitWriting library : libebml v1.3.5 + libmatroska v1.4.8
VideoID : 1Format : AVCFormat/Info : Advanced Video CodecFormat profile : [email protected] settings, CABAC : YesFormat settings, ReFrames : 3 framesCodec ID : V_MPEG4/ISO/AVCDuration : 1h 30mnBit rate : 670 KbpsWidth : 854 pixelsHeight : 480 pixelsDisplay aspect ratio : 16:9Frame rate mode : ConstantFrame rate : 29.970 (30000/1001) fpsColor space : YUVChroma subsampling : 4:2:0Bit depth : 8 bitsScan type : ProgressiveBits/(Pixel*Frame) : 0.055Stream size : 434 MiB (73%)Default : YesForced : No
Audio #1ID : 2Format : AACFormat/Info : Advanced Audio CodecFormat profile : LCCodec ID : A_AACDuration : 1h 30mnBit rate : 125 KbpsChannel(s) : 2 channelsChannel positions : Front: L RSampling rate : 44.1 KHzFrame rate : 43.066 fps (1024 spf)Compression mode : LossyStream size : 80.6 MiB (13%)Language : RussianDefault : YesForced : No
Audio #2ID : 3Format : AACFormat/Info : Advanced Audio CodecFormat profile : LCCodec ID : A_AACDuration : 1h 30mnBit rate : 126 KbpsChannel(s) : 2 channelsChannel positions : Front: L RSampling rate : 44.1 KHzFrame rate : 43.066 fps (1024 spf)Compression mode : LossyStream size : 81.3 MiB (14%)Language : FrenchDefault : NoForced : No

Скриншот c названием фильма

Скриншоты



[fxraven.com]_t_5517625.torrent
Торрент: Зарегистрирован ·  [ 2018-02-13 21:21 ] ·  914206b914979b5fc44f2dbd11f2864d3896f1f6

12 KB

Статус: проверено
Скачан: 0 раз
Размер: 598 MB
Оценка: 
(Голосов: 0)
Сказали спасибо: 0  Спасибо
Похожие темы
[Профиль]    [ЛС]
Показать сообщения:    
Ответить на тему

Текущее время: Сегодня 12:13

Часовой пояс: GMT + 7



Вы не можете начинать темы
Вы не можете отвечать на сообщения
Вы не можете редактировать свои сообщения
Вы не можете удалять свои сообщения
Вы не можете голосовать в опросах
Вы не можете прикреплять файлы к сообщениям
Вы можете скачивать файлы