Волшебная лампа Алладина (Светлана Степкина) [2014, Украина, музыкальная сказка, WEB-DLRip] Луганский академический областной русский драматический театр им. П.Б. Луспекаева

Ответить на тему
Статистика раздачи [Обновить пиров]
Размер:  745 MB   |    Зарегистрирован:  8 дней   |    Скачан:  0 раз

Полного источника не было: Никогда

 
   
 
 
 
Автор Сообщение

fxraven.com

Создавать темы 13-Фев-2018 21:21

[Цитировать]

Волшебная лампа Алладина Название театра: Луганский академический областной русский драматический театр им. П.Б. Луспекаева.
Год выхода: 2014.
Страна: Украина .
Жанр: музыкальная сказка.
Продолжительность: 01:01:16.
Режиссер: заслуженный артист Луганской Народной Республики Светлана Степкина.
Действующие лица и исполнители:
Аладдин - Иван Долгий,
Будур - заслуженный артист Луганской Народной Республики Светлана Степкина,
Джин - Павел Морозов,
Джафар - Роман Брилев,
Артисты театра.
Описание:
Злой колдун-магрибинец взывает к звездам, чтобы те поведали ему имя человека, что найдет волшебную лампу, способную творить чудеса. Звезды ответили: «Это Аладдин». В Багдаде живет дочь султана, красавица Будур. Всякий, кто посмеет взглянуть на нее, будет казнен. Но своевольная и капризная принцесса заставляет Аладдина взглянуть на нее. Юноша как увидел принцессу, так сразу в нее и влюбился. А волшебная лампа со всемогущим джином, готовым выполнить любой приказ повелителя, помогла Аладдину сохранить свою любовь и справиться с Магрибинцем.
Дополнительная информация:
В раздаваемом материале нет кадра с названием.
Хореограф: Марина Лазарева.
Художник-постановщик: Наталья Скороходова.
[img]http://a.radikal.ru/a18/1801/5a/02fbe0bdf4e3.jpg[/img]
О спектакле.

Рип sharky.

Качество видео:...WEB-DLRip
Формат файла:.................AVI
Видео:..704x400 (1.76:1), 25 fps, DivX Codec 4.x ~1562 kbps avg, 0.22 bit/pixel
Аудио:..44.100 kHz, MPEG Layer 3, 2 ch, ~128.00 kbps avg

Отчет Media Info

General
Complete name : Volshebnaya.lampa.Alladina_Luganskij.AORDT.im.Luspekaeva.2014.DivX.WEB-DLRip.fenixclub.avi
Format : AVI
Format/Info : Audio Video Interleave
File size : 745 MiB
Duration : 1h 1mn
Overall bit rate : 1 700 Kbps
Video
ID : 0
Format : MPEG-4 Visual
Format settings, BVOP : 1
Format settings, QPel : No
Format settings, GMC : No warppoints
Format settings, Matrix : Default (H.263)
Codec ID : DX50
Codec ID/Hint : DivX 5
Duration : 1h 1mn
Bit rate : 1 563 Kbps
Width : 704 pixels
Height : 400 pixels
Display aspect ratio : 16:9
Frame rate : 25.000 fps
Color space : YUV
Chroma subsampling : 4:2:0
Bit depth : 8 bits
Scan type : Progressive
Compression mode : Lossy
Bits/(Pixel*Frame) : 0.222
Stream size : 685 MiB (92%)
Title : Video
Writing library : DivX 3013
Audio
ID : 1
Format : MPEG Audio
Format version : Version 1
Format profile : Layer 3
Codec ID : 55
Codec ID/Hint : MP3
Duration : 1h 1mn
Bit rate mode : Constant
Bit rate : 128 Kbps
Channel(s) : 2 channels
Sampling rate : 44.1 KHz
Compression mode : Lossy
Stream size : 56.1 MiB (8%)
Alignment : Split accross interleaves
Interleave, duration : 40 ms (1.00 video frame)
Interleave, preload duratio : 500 ms
Title : Audio

Скриншоты




[fxraven.com]_t_5514614.torrent
Торрент: Зарегистрирован ·  [ 2018-02-13 21:21 ] ·  6630ca5a34414dbd5dce90717662c252d2119925

15 KB

Статус: проверено
Скачан: 0 раз
Размер: 745 MB
Оценка: 
(Голосов: 0)
Сказали спасибо: 0  Спасибо
Похожие темы
[Профиль]    [ЛС]
Показать сообщения:    
Ответить на тему

Текущее время: Сегодня 21:55

Часовой пояс: GMT + 7



Вы не можете начинать темы
Вы не можете отвечать на сообщения
Вы не можете редактировать свои сообщения
Вы не можете удалять свои сообщения
Вы не можете голосовать в опросах
Вы не можете прикреплять файлы к сообщениям
Вы можете скачивать файлы